Torrent Details

Photo Not Available
Love Simon 2018 Movies 720p BluRay HEVC x265 5 1 ESubs with Sample ☻rDX☻
Size1015 MB in 2 files
ReleasesAdded on 13.07.2018 at 0:16 into the Movies category by Unknown.
Status8 seeds & 9 peers.
Hash066a683f84e33a8f9f2287c45d14abd8547d4f6c
Rating
  • YourBT Visitors

Status This torrent has been verified.
*

Torrent Description

Love Simon 2018 Movies 720p BluRay HEVC x265 5.1 ESubs with Sample ☻rDX☻====================================================

SCREEN SHOTS:



or

http://iphonehosting.eu/2018/5/a/domain/1.html

File size : 1 005 MiB
Duration : 1 h 49 min
Overall bit rate : 1 281 kb/s
Movie name : Love Simon 2018 Movies 720p BluRay HEVC x265 5.1 ESubs ☻rDX☻

Video
ID : 2
Format : HEVC
Format/Info : High Efficiency Video Coding
Format profile : [email protected]@Main
Codec ID : V_MPEGH/ISO/HEVC
Duration : 1 h 49 min
Bit rate : 807 kb/s
Width : 1 280 pixels
Height : 536 pixels
Display aspect ratio : 2.40:1
Frame rate mode : Constant
Frame rate : 23.976 (24000/1001) FPS
Color space : YUV
Chroma subsampling : 4:2:0
Bit depth : 8 bits
Bits/(Pixel*Frame) : 0.049
Stream size : 633 MiB (63%)
Title : ☻rDX☻
Writing library : x265

Audio
ID : 1
Format : AC-3
Format/Info : Audio Coding 3
Mode extension : CM (complete main)
Format settings, Endianness : Big
Codec ID : A_AC3
Duration : 1 h 49 min
Bit rate mode : Constant
Bit rate : 448 kb/s
Channel(s) : 6 channels
Channel positions : Front: L C R, Side: L R, LFE
Sampling rate : 48.0 kHz
Frame rate : 31.250 FPS (1536 spf)
Bit depth : 16 bits
Compression mode : Lossy
Stream size : 352 MiB (35%)
Title : ☻rDX☻
Default : Yes
Forced : No

Text
ID : 3
Format : UTF-8
Codec ID : S_TEXT/UTF8
Codec ID/Info : UTF-8 Plain Text
Title : ☻rDX☻
Language : English
Default : Yes
Forced : No



IMDB : http://www.imdb.com/title/tt5164432



Similar Torrents

No Similar Torrents Found

If we find similar torrents, we normally show them right here. We couldn't find anything for "".

Torrent Trackers

TRACKER URLSEEDSPEERS
Onlineudp://tracker.pirateparty.gr:6969/announce87
Onlineudp://tracker.coppersurfer.tk:6969/announce79
Onlineudp://tracker.opentrackr.org:1337/announce50
Onlineudp://tracker.open-internet.nl:6969/announce50

Files inside this torrent

FILENAMESIZE
icon Love Simon 2018 Movies 720p BluRay HEVC x265 5.1 ESubs ☻rDX☻.mkv1004.9 MB
icon Sample ~ Love Simon 2018 Movies 720p BluRay HEVC x265 5.1 ESubs ☻rDX☻.mkv10.3 MB