Torrent Details

Photo Not Available
Neighbors 2 Sorority Rising 2016 720p BluRay x264 Dual Audio [Hindi DD 5 1 - English 2 0] ESub [MW]
Size840 MB in 1 file
ReleasesAdded on 12.07.2018 at 23:57 into the Movies category by Unknown.
Status10 seeds & 4 peers.
Hash20a4fff2b8e21abb2111b9bc6ef4d65080965844
Rating
  • YourBT Visitors

Status This torrent has been verified.
*

Torrent Description

General
Format : Matroska
Format version : Version 4 / Version 2
File size : 840 MiB
Duration : 1 h 32 min
Overall bit rate : 1 271 kb/s

Video
ID : 1
Format : AVC
Format/Info : Advanced Video Codec
Format profile : [email protected]
Format settings : CABAC / 5 Ref Frames
Format settings, CABAC : Yes
Format settings, RefFrames : 5 frames
Codec ID : V_MPEG4/ISO/AVC
Duration : 1 h 32 min
Bit rate : 949 kb/s
Width : 1 280 pixels
Height : 536 pixels
Display aspect ratio : 2.40:1
Frame rate mode : Constant
Frame rate : 23.976 (24000/1001) FPS
Color space : YUV
Chroma subsampling : 4:2:0
Bit depth : 8 bits
Scan type : Progressive
Bits/(Pixel*Frame) : 0.058
Stream size : 627 MiB (75%)
Writing library : x264 core 148 r2638 7599210
Default : Yes
Forced : No

Audio #1
ID : 2
Format : AC-3
Format/Info : Audio Coding 3
Codec ID : A_AC3
Duration : 1 h 32 min
Bit rate mode : Constant
Bit rate : 224 kb/s
Channel(s) : 6 channels
Channel positions : Front: L C R, Side: L R, LFE
Sampling rate : 48.0 kHz
Frame rate : 31.250 FPS (1536 SPF)
Bit depth : 16 bits
Compression mode : Lossy
Delay relative to video : -21 ms
Stream size : 148 MiB (18%)
Language : Hindi
Service kind : Complete Main
Default : Yes
Forced : No

Audio #2
ID : 3
Format : AAC
Format/Info : Advanced Audio Codec
Format profile : LC
Codec ID : A_AAC-2
Duration : 1 h 32 min
Bit rate : 96.0 kb/s
Channel(s) : 2 channels
Channel positions : Front: L R
Sampling rate : 48.0 kHz
Frame rate : 46.875 FPS (1024 SPF)
Compression mode : Lossy
Delay relative to video : -21 ms
Stream size : 63.4 MiB (8%)
Language : English
Default : No
Forced : No

Text
ID : 4
Format : UTF-8
Codec ID : S_TEXT/UTF8
Codec ID/Info : UTF-8 Plain Text
Duration : 1 h 25 min
Bit rate : 100 b/s
Count of elements : 2127
Stream size : 62.9 KiB (0%)
Default : Yes
Forced : No














Similar Torrents

No Similar Torrents Found

If we find similar torrents, we normally show them right here. We couldn't find anything for "".

Torrent Trackers

TRACKER URLSEEDSPEERS
Onlineudp://tracker.coppersurfer.tk:6969/announce104
Onlineudp://tracker.open-internet.nl:6969/announce73
Onlineudp://tracker.opentrackr.org:1337/announce50
Onlineudp://tracker.pirateparty.gr:6969/announce51

Files inside this torrent

FILENAMESIZE
icon Neighbors 2 Sorority Rising 2016 720p BluRay x264 Dual Audio [Hindi DD 5.1 - English 2.0] ESub [MW].mkv840.2 MB